Extreme Pornograffitti Live 25 Metal Meltdown 2016《WEB-DL MKV 11.2G》

[视频信息]
视频编码: AVC1 - 内置 FFmpeg 解码器(h264, Thread Frame)
输入格式: AVC1(24 bits)
输入尺寸: 1920 × 1080(1.78:1)
输出格式: NV12(12 bits)
输出尺寸: 1920 × 1080(1.78:1)
帧率: 23.976
BitRate: 未知

[音频信息]
音频编码: Dolby AC3(0x2000) - 内置 FFmpeg 解码器(ac3)
采样率: 48000 -> 48000 Hz
位率: 0 -> 16 位
声道数: 6 -> 2 声道
Bitrate: 640 kbps

General
Unique ID : 234881164253957562706541023122565122922 (0xB0B4777DA4D4EC9D9E8E5E1F5DCC4B6A)
Complete name : I:\ETX-2016-11.2\Extreme Pornograffitti Live 25 Metal Meltdown 2016 1080p\Extreme Pornograffitti Live 25 Metal Meltdown 2016 1080p DD 5 1 x264.mkv
Format : Matroska
Format version : Version 4
File size : 4.77 GiB
Duration : 1 h 29 min
Overall bit rate mode : Variable
Overall bit rate : 7 655 kb/s
Movie name : Extreme Pornograffitti Live 25 Metal Meltdown 2016 1080p DD 5 1 x264
Encoded date : UTC 2017-04-30 12:33:52
Writing application : mkvmerge v10.0.0 ('To Drown In You') 32bit
Writing library : libebml v1.3.4 + libmatroska v1.4.5

Video
ID : 1
Format : AVC
Format/Info : Advanced Video Codec
Format profile : High@L4
Format settings : CABAC / 3 Ref Frames
Format settings, CABAC : Yes
Format settings, Reference fra : 3 frames
Codec ID : V_MPEG4/ISO/AVC
Duration : 1 h 29 min
Bit rate mode : Variable
Bit rate : 7 013 kb/s
Maximum bit rate : 25.0 Mb/s
Width : 1 920 pixels
Height : 1 080 pixels
Display aspect ratio : 16:9
Frame rate mode : Constant
Frame rate : 23.976 (24000/1001) FPS
Color space : YUV
Chroma subsampling : 4:2:0
Bit depth : 8 bits
Scan type : Progressive
Bits/(Pixel*Frame) : 0.141
Stream size : 4.37 GiB (92%)
Writing library : x264 core 148 r2762 90a61ec
Encoding settings : cabac=1 / ref=3 / deblock=1:0:0 / analyse=0x3:0x113 / me=hex / subme=7 / psy=1 / psy_rd=1.00:0.00 / mixed_ref=1 / me_range=16 / chroma_me=1 / trellis=1 / 8x8dct=1 / cqm=0 / deadzone=21,11 / fast_pskip=1 / chroma_qp_offset=-2 / threads=18 / lookahead_threads=3 / sliced_threads=0 / nr=0 / decimate=1 / interlaced=0 / bluray_compat=0 / constrained_intra=0 / bframes=3 / b_pyramid=0 / b_adapt=1 / b_bias=0 / direct=1 / weightb=1 / open_gop=0 / weightp=2 / keyint=240 / keyint_min=24 / scenecut=40 / intra_refresh=0 / rc_lookahead=40 / rc=crf / mbtree=1 / crf=22.0 / qcomp=0.60 / qpmin=0 / qpmax=69 / qpstep=4 / vbv_maxrate=25000 / vbv_bufsize=25000 / crf_max=0.0 / nal_hrd=vbr / filler=0 / ip_ratio=1.40 / aq=1:1.00
Default : Yes
Forced : No

Audio
ID : 2
Format : AC-3
Format/Info : Audio Coding 3
Commercial name : Dolby Digital
Codec ID : A_AC3
Duration : 1 h 29 min
Bit rate mode : Constant
Bit rate : 640 kb/s
Channel(s) : 6 channels
Channel layout : L R C LFE Ls Rs
Sampling rate : 48.0 kHz
Frame rate : 31.250 FPS (1536 SPF)
Compression mode : Lossy
Stream size : 408 MiB (8%)
Language : English
Service kind : Complete Main
Default : Yes
Forced : No

Menu
00:00:00.000 : en:(01)00:00:00:000
00:02:26.563 : en:(02)00:02:26:563
00:10:38.012 : en:(03)00:10:38:012
00:15:53.243 : en:(04)00:15:53:243
00:22:22.841 : en:(05)00:22:22:841
00:28:06.393 : en:(06)00:28:06:393
00:36:00.491 : en:(07)00:36:00:491
00:40:31.262 : en:(08)00:40:31:262
00:45:42.322 : en:(09)00:45:42:322
00:52:15.173 : en:(10)00:52:15:173
00:57:27.694 : en:(11)00:57:27:694
01:03:10.995 : en:(12)01:03:10:995
01:04:59.061 : en:(13)01:04:59:061
01:09:52.605 : en:(14)01:09:52:605
01:17:27.726 : en:(15)01:17:27:726
01:21:34.306 : en:(16)01:21:34:306
01:25:59.529 : en:(17)01:25:59:529

资源下载此资源下载价格为2金币,VIP免费,请先
所有资源都在百度网盘,如有链接失效、解压错误等、请联系管理微信:aimuvv
资源下载
下载价格2 金币
VIP免费
所有资源都在百度网盘,如有链接失效、解压错误等、请联系管理微信:aimuvv

原文链接:https://www.lgych.com/41029.html,转载请注明出处。

0

评论127

请先

  1. 支持點贊 很好很強大
    bobiti2622 2022-05-29 0
  2. eight
    螃蟹大叔 2022-06-01 0
  3. 值得珍藏
    jgl888 2022-06-14 0
  4. 谢谢分享
    awccn8888 2022-06-19 0
  5. 皮皮巴巴多谢分享!皮皮巴巴多谢分享!皮皮巴巴多谢分享!皮皮巴巴多谢分享!
    我是大男人 2022-07-11 0
  6. 谢谢分享!
    user_zbz 2022-07-12 0
  7. 多谢分享好资源!
    wo94ty 1周前 0
1 5 6 7
华语蓝光合集 252部11T资源终极收藏!支持硬盘拷贝:https://www.lgych.com/cnbd/
显示验证码
没有账号? 注册  忘记密码?